11,143

Швидкий навігатор

NLight DC++
↓ Кіт у чоботях / Puss in Boots (2011) BDRip 1080p Ukr/Eng | Sub Eng
↓ Інформація про публікацію (Дивитись онлайн)
Жанр: анімація, пригодницький, комедія
Країна: США



Кіностудія / кінокомпанія: DreamWorks Animation
Режисер: Кріс Міллер
Актори: Антоніо Бандерас, Сальма Хаєк, Зак Галіфіанакіс та ін.

Сюжет:
Як і в кожного легендарного героя, у Кота було важке дитинство – ще немовлям він потрапив у дитячий притулок маленького іспанського (чи мексиканського?) містечка. Там Кіт зустрів яйце на ім'я Хитун Александр Бовтун, який ще у дитинстві склав хитрий план викрадення гуски, що несе золоті яйця. Допомогти у його здійсненні мали чарівні боби.

Друзі організували Бобовий клуб (головне правило якого – "нікому не розповідати про Бобовий клуб") і стали шукати способи наблизитися до своєї мрії. Згодом Кіт розпочав свій шлях народного героя та рятівника бабусь, а Бовтун, засліплений жадобою багатства, потрапив у в'язницю. Через сім років і вони знову возз'єдналися, аби згадати старі часи та вкрасти омріяну гуску. Допомагає їм у цьому красуня Кицька М'яколапка.

Пухнастий герой картини, мов справжній мачо-супермен, танцює, б'ється на шпагах, зваблює гарненьких киць, зачаровує своєю тваринною харизмою та від'їздить у захід сонця на баскому скакуні.


Тривалість: 01:30:20
Якість: BDRip
Відео:
кодек: H.264
розмір кадру: 1920x814
бітрейт: 11.0 мб/с

Аудіо # 1:
мова: українська
переклад: професійний дубльований
кодек: AC3 2.0
бітрейт: 224 кб/с

Аудіо # 2:
мова: англійська
переклад: оригінал
кодек: DTS 5.1
бітрейт: 1510 кб/с

Субтитри:
мова: англійська
тип: програмні (м'які)
формат: *.srt

Джерело озвучки:


Джерело відео:


MediaInfo


Код:
Format : Matroska 
File size : 8.03 GiB
Duration : 1h 30mn
Overall bit rate : 12.7 Mbps
Encoded date : UTC 2012-02-16 15:26:23
Writing application : mkvmerge v2.4.2 ('Oh My God') built on Jan 18 2009 17:30:28
Writing library : libebml v0.7.7 + libmatroska v0.8.1
Video #1
ID : 1
Format : AVC
Format/Info : Advanced Video Codec
Format profile : High@L4.1
Format settings, CABAC : Yes
Format settings, ReFrames : 5 frames
Muxing mode : Container profile=Unknown@4.1
Codec ID : V_MPEG4/ISO/AVC
Duration : 1h 30mn
Bit rate : 10.7 Mbps
Nominal bit rate : 11.0 Mbps
Width : 1 920 pixels
Height : 814 pixels
Display aspect ratio : 2.35:1
Frame rate : 23.976 fps
Resolution : 24 bits
Colorimetry : 4:2:0
Scan type : Progressive
Bits/(Pixel*Frame) : 0.287
Stream size : 6.77 GiB (84%)
Writing library : x264 core 120 r2164 da19765
Encoding settings : cabac=1 / ref=5 / deblock=1:-2:-2 / analyse=0x3:0x133 / me=umh / subme=10 / psy=1 / psy_rd=1.00:0.00 / mixed_ref=1 / me_range=64 / chroma_me=1 / trellis=2 / 8x8dct=1 / cqm=0 / deadzone=21,11 / fast_pskip=0 / chroma_qp_offset=-2 / threads=12 / sliced_threads=0 / nr=0 / decimate=0 / interlaced=0 / bluray_compat=0 / constrained_intra=0 / bframes=7 / b_pyramid=2 / b_adapt=2 / b_bias=0 / direct=3 / weightb=1 / open_gop=0 / weightp=2 / keyint=240 / keyint_min=24 / scenecut=40 / intra_refresh=0 / rc=2pass / mbtree=0 / bitrate=11000 / ratetol=1.0 / qcomp=0.70 / qpmin=0 / qpmax=69 / qpstep=4 / cplxblur=20.0 / qblur=0.5 / ip_ratio=1.45 / pb_ratio=1.20 / aq=1:1.30
Language : English
Audio #2
ID : 2
Format : AC-3
Format/Info : Audio Coding 3
Codec ID : A_AC3
Duration : 1h 30mn
Bit rate mode : Constant
Bit rate : 224 Kbps
Channel(s) : 2 channels
Channel positions : L R
Sampling rate : 48.0 KHz
Video delay : 39s 300ms
Stream size : 145 MiB (2%)
Language : Ukrainian
Audio #3
ID : 3
Format : DTS
Format/Info : Digital Theater Systems
Codec ID : A_DTS
Duration : 1h 30mn
Bit rate mode : Constant
Bit rate : 1 510 Kbps
Channel(s) : 6 channels
Channel positions : Front: L C R, Surround: L R, LFE
Sampling rate : 48.0 KHz
Resolution : 24 bits
Video delay : 11ms
Stream size : 974 MiB (12%)
Language : English
Text #4
ID : 4
Format : UTF-8
Codec ID : S_TEXT/UTF8
Codec ID/Info : UTF-8 Plain Text
Language : English


  В закладки додало 0 людей.
2
Оцініть файл [ + або - ]
Торрент-файл / Оновити статистику трекера
Роздають 33
Завантажують 1
Розмір файлу 8.03 ГБ
Завантажили 134 р.
Потужність потоку
Переглядів: 3197
Пошукові теги: Кіт, чоботях, Puss, Boots, 2011, BDRip, 1080p, Ukr, Eng, Sub, Eng.
Якщо ви маєте права на цей матеріал, наступна інформація для вас.
↓ Пропозиції → Українське дублювання, Blu-Ray 720р, 1080р / FULL HD.
Назва файлу Розмір
Puss in Boots (2011) BDRip 1080p Ukr,Eng Sub Eng.mkv 8.03 ГБ
bigtorrent-ua.com
Згенеровано за 0.0997 сек