11,143

Швидкий навігатор

NLight DC++
↓ Хранитель часу / Hugo (2011) BDRip 720p Ukr/Eng | Sub Eng
↓ Інформація про публікацію (Дивитись онлайн)
Жанр: пригодницький, драма, сімейний
Країна: США


Top 250: #200

Кіностудія / кінокомпанія: Paramount Pictures, GK Films, Infinitum Nihil; мейджор – Universal Pictures International
Режисер: Мартін Скорсезе
Актори: Бен Кінслі, Саша Барон Коен, Аса Баттерфілд, Хлоя Грейс Морец, Рей Уінстоун

Сюжет:
Дія розгортається у Франції початку 30-х років минулого століття. Головний герой, хлопчик-сирота Хьюго, який проживає в стінах паризького вокзалу зі своїм дядьком-алкоголіком, випадково знаходить таємничий механізм, створений знаменитим фільммейкером Жоржем Мельєс. Ця знахідка запускає ланцюгову реакцію дивовижних подій, які в кінцевому підсумку допоможуть Хьюго розгадати таємницю його покійного батька.

Тривалість: 02:06:21
Якість: BDRip 720p
Відео:
кодек: H.264
розмір кадру: 1280x720
бітрейт: 4680 кб/с

Аудіо # 1:
мова: українська |Line| від Skiff
переклад: професійний дубльований
кодек: AC3 2.0
бітрейт: 384 кб/с

Аудіо # 2:
мова: англійська
переклад: оригінал
кодек: DTS 5.1
бітрейт: 1510 кб/с

Субтитри:
мова: англійська
тип: програмні (м'які)
формат: *.srt

MediaInfo


Код:
Format : Matroska 
File size : 5.81 GiB
Duration : 2h 6mn
Overall bit rate : 6 578 Kbps
Movie name : Hugo (2011) BDRip 720p Ukr/Eng | Sub Eng.mkv
Encoded date : UTC 2012-02-19 18:37:01
Writing application : mkvmerge v2.4.2 ('Oh My God') built on Jan 18 2009 17:30:28
Writing library : libebml v0.7.7 + libmatroska v0.8.1
Video #1
ID : 1
Format : AVC
Format/Info : Advanced Video Codec
Format profile : High@L4.1
Format settings, CABAC : Yes
Format settings, ReFrames : 5 frames
Muxing mode : Container profile=Unknown@4.1
Codec ID : V_MPEG4/ISO/AVC
Duration : 2h 6mn
Bit rate : 4 553 Kbps
Nominal bit rate : 4 680 Kbps
Width : 1 280 pixels
Height : 720 pixels
Display aspect ratio : 16:9
Frame rate : 23.976 fps
Resolution : 24 bits
Colorimetry : 4:2:0
Scan type : Progressive
Bits/(Pixel*Frame) : 0.206
Stream size : 4.01 GiB (69%)
Writing library : x264 core 120 r2164 da19765
Encoding settings : cabac=1 / ref=5 / deblock=1:0:0 / analyse=0x3:0x113 / me=umh / subme=8 / psy=1 / psy_rd=1.00:0.00 / mixed_ref=1 / me_range=16 / chroma_me=1 / trellis=1 / 8x8dct=1 / cqm=0 / deadzone=21,11 / fast_pskip=1 / chroma_qp_offset=-2 / threads=12 / sliced_threads=0 / nr=0 / decimate=1 / interlaced=0 / bluray_compat=0 / constrained_intra=0 / bframes=3 / b_pyramid=2 / b_adapt=2 / b_bias=0 / direct=3 / weightb=1 / open_gop=0 / weightp=2 / keyint=240 / keyint_min=24 / scenecut=40 / intra_refresh=0 / rc_lookahead=50 / rc=2pass / mbtree=1 / bitrate=4680 / ratetol=1.0 / qcomp=0.60 / qpmin=0 / qpmax=69 / qpstep=4 / cplxblur=20.0 / qblur=0.5 / ip_ratio=1.40 / aq=1:1.00
Language : English
Audio #2
ID : 2
Format : AC-3
Format/Info : Audio Coding 3
Codec ID : A_AC3
Duration : 2h 6mn
Bit rate mode : Constant
Bit rate : 384 Kbps
Channel(s) : 2 channels
Channel positions : L R
Sampling rate : 48.0 KHz
Stream size : 347 MiB (6%)
Language : Ukrainian
Audio #3
ID : 3
Format : DTS
Format/Info : Digital Theater Systems
Codec ID : A_DTS
Duration : 2h 6mn
Bit rate mode : Constant
Bit rate : 1 510 Kbps
Channel(s) : 6 channels
Channel positions : Front: L C R, Surround: L R, LFE
Sampling rate : 48.0 KHz
Resolution : 24 bits
Video delay : 11ms
Stream size : 1.33 GiB (23%)
Language : English
Text #4
ID : 4
Format : UTF-8
Codec ID : S_TEXT/UTF8
Codec ID/Info : UTF-8 Plain Text
Language : English

Джерело:


Відео з YouTube

  В закладки додало 0 людей.
0
Оцініть файл [ + або - ]
Торрент-файл / Оновити статистику трекера
Роздають 5
Завантажують Без лічерів.
Розмір файлу 5.81 ГБ
Завантажили 346 р.
Потужність потоку
Переглядів: 2586
Пошукові теги: Хранитель, часу, Hugo, 2011, BDRip, 720p, Ukr, Eng, Sub, Eng.
Якщо ви маєте права на цей матеріал, наступна інформація для вас.
↓ Пропозиції → Драма, мелодрама, романтика, Українське дублювання.
Назва файлу Розмір
Hugo (2011) BDRip 720p Ukr,Eng Sub Eng.mkv 5.81 ГБ
bigtorrent-ua.com
Згенеровано за 0.1564 сек