11,143

Швидкий навігатор

NLight DC++
↓ Морський бій / Battleship (2012) TS * PRO / Rus
↓ Інформація про публікацію (Дивитись онлайн)
«Битва за Землю розпочнеться на воді»


Назва: Морський бій
Оригінальна назва: Battleship
Рік випуску: 2012
Випущено: США, Battleship Delta Productions, Film 44, Hasbro Inc., Ponysound, Stuber Productions
Тривалість: 2:00:50
Жанр: Фантастика, бойовик, трилер
Переклад: Дубльований
Режисер: Пітер Берг / Peter Berg
У ролях: Ліам Нісон, Тейлор Кітч, Олександр Скарсгард, Бруклін Декер, Ріанна, Джессі Племонс, Джон Белл, Пітер МакНікол, Таданобу Асано, Джошуа Пенс

Опис: Ми надсилаємо сигнали в космос і чекаємо відповіді. Але чи впевнені ми, що хочемо його отримати? Що якщо прибульці потенційно небезпечні? У 2009 році на конференції у Вашингтоні астронавт Едгар Мітчелл, який побував на Місяці, зробив сенсаційну заяву про існування позаземного життя. Тепер ми знаємо, контакт не просто можливий, він неминучий!



Рейтинг PG-13 - Дітям до 13 років перегляд не бажаний
Наполегливе попередження батькам. Даний рейтинг одержують фільми, зміст яких може вважатися неприйнятним для дітей, які не досягли 13-річного віку.
У фільмі відсутні сцени з насильством і «оголенням», але вже можуть бути присутніми неконкретизовані епізоди з наркотиками і слова, пов'язані з сексом.

Відео: AVI, XviD, 2151 Кбіт / с, 720x288
Аудіо: MP3, 2 ch, 256 Кбіт / с

Кадри з фільму




Media Info
Формат : AVI
Формат/Информация : Audio Video Interleave
Профиль формата : OpenDML
Размер файла : 2,04 Гбайт
Продолжительность : 2 ч. 0 м.
Общий поток : 2420 Кбит/сек
Программа кодирования : VirtualDubMod 1.5.10.3 (build 2550/release)
Библиотека кодирования : VirtualDubMod build 2550/release

Видео
Идентификатор : 0
Формат : MPEG-4 Visual
Профиль формата : Advanced Simple@L5
Параметр BVOP формата : 2
Параметр QPel формата : Нет
Параметр GMC формата : Без точки перехода
Параметр матрицы формата : Выборочная
Идентификатор кодека : XVID
Идентификатор кодека/Подсказка : XviD
Продолжительность : 2 ч. 0 м.
Битрейт : 2151 Кбит/сек
Ширина : 720 пикселей
Высота : 288 пикселей
Соотношение сторон : 2,500
Частота кадров : 25,000 кадров/сек
Цветовое пространство : YUV
Субдискретизация насыщенности : 4:2:0
Битовая глубина : 8 бит
Тип развёртки : Прогрессивная
Метод сжатия : С потерями
Бит/(Пиксели*Кадры) : 0.415
Размер потока : 1,82 Гбайт (89%)
Библиотека кодирования : XviD 64

Аудио
Идентификатор : 1
Формат : MPEG Audio
Версия формата : Version 1
Профиль формата : Layer 3
Идентификатор кодека : 55
Идентификатор кодека/Подсказка : MP3
Продолжительность : 2 ч. 0 м.
Вид битрейта : Постоянный
Битрейт : 256 Кбит/сек
Каналы : 2 канала
Частота : 44,1 КГц
Метод сжатия : С потерями
Размер потока : 221 Мбайт (11%)
Выравнивание : Разделение по промежуткам
Продолжительность промежутка : 40 мс. (1,00 видеокадр)
Время предзагрузки промежутка : 500 мс.

  В закладки додало 0 людей.
2
Оцініть файл [ + або - ]
Торрент-файл / Оновити статистику трекера
Роздають 3,208
Завантажують 107
Розмір файлу 2.04 ГБ
Завантажили 21275 р.
Потужність потоку
Перегляд: 4301
Пошукові теги: Морський, бій, Battleship, 2012, PRO, Rus.
Якщо ви маєте права на цей матеріал, наступна інформація для вас.
↓ Пропозиції → Трилери, Бойовик, Екшн, Кримінал.
Назва файлу Розмір
Morskoj.boj.2012.XviD.TS.avi 2.04 ГБ
bigtorrent-ua.com
Згенеровано за 0.1044 сек