11,144

Швидкий навігатор

Друзі сайту
NLight DC++
↓ Тайная жизнь Яна Флеминга / The Secret Life of Ian Fleming (Фердинанд Фэйрфакс / Ferdinand Fairfax) [1990, США, приключения, военный, биография, DVDRip-AVC] DVO (Селена Интернешнл)
↑ Реклама - двигун прогресу, переглянь оголошення і BT заробить 1 цент. Підтримай проект!
Доданий - 18 жов 2016р. о 21:27 |Категорія, Фільми → , .
↓ Інформація про публікацію (Дивитись онлайн)
Тайная жизнь Яна Флеминга / The Secret Life of Ian Fleming

Страна: США
Жанр: приключения, военный, биография
Год выпуска: 1990
Продолжительность: 01:32:03

Перевод: Профессиональный (двухголосый закадровый) Селена Интернешнл
Cубтитры: нет
Оригинальная аудиодорожка: английский

Режиссер: Фердинанд Фэйрфакс / Ferdinand Fairfax

В ролях: Джейсон Коннери, Кристин Скотт Томас, Джосс Экленд, Патриция Ходж, Дэвид Уорнер, Колин Уэлланд, Фиона Фуллертон, Ричард Джонсон, Джулиан Фёрт, Марша Фитцалан...

Описание: Ян Флеминг, создавший Джеймса Бонда, оживил потрясающий шпионский триллер. Его приключения охватывают весь земной шар, начиная от России, заканчивая сверхсекретной крепостью нацистов, где он разгромил врага, будучи на секретной службе у Ее Величества. Ему в одиночку удается перехитрить советскую разведку, расстроить планы монстра SS, а также узнать секреты Высшего Германского Командования. Остросюжетные приключения из жизни человека, создавшего Джеймса Бонда.

Доп. информация: Перевод Селена Интернешнл с раздачи dmitry2264. Синхронизация звука - Dreven.

Сэмпл: http://sendfile.su/1275612

Качество видео: DVDRip-AVC
Формат видео: MKV

Видео: 616x478 (1.289), 23.976 fps, AVC, ~1377 Kbps, 0.195 bits/pixel
Аудио 1: Russian, 48.0 KHz, AC3, 2 ch, 192 Kbps - Селена Интернешнл
Аудио 2: English, 44.1 KHz, AAC LC, 2 ch, 128 Kbps

MediaInfo
General
Unique ID : 254129166615297395648673665853071150104 (0xBF2F7F46B5102163876FB865049DCC18)
Complete name : C:\The Secret Life of Ian Fleming.mkv
Format : Matroska
Format version : Version 4 / Version 2
File size : 1.11 GiB
Duration : 1h 32mn
Overall bit rate : 1 723 Kbps
Encoded date : UTC 2016-10-16 14:42:16
Writing application : mkvmerge v9.4.2 ('So High') 64bit
Writing library : libebml v1.3.4 + libmatroska v1.4.5

Video
ID : 1
Format : AVC
Format/Info : Advanced Video Codec
Format profile : Baseline@L3
Format settings, CABAC : No
Format settings, ReFrames : 1 frame
Format settings, GOP : N=1
Codec ID : V_MPEG4/ISO/AVC
Duration : 1h 32mn
Bit rate : 1 403 Kbps
Width : 616 pixels
Height : 478 pixels
Display aspect ratio : 1.289
Frame rate mode : Constant
Frame rate : 23.976 (24000/1001) fps
Color space : YUV
Chroma subsampling : 4:2:0
Bit depth : 8 bits
Scan type : Progressive
Bits/(Pixel*Frame) : 0.199
Stream size : 924 MiB (81%)
Language : English
Default : Yes
Forced : No
Color range : Limited
Color primaries : BT.601 NTSC
Transfer characteristics : BT.709
Matrix coefficients : BT.601

Audio #1
ID : 2
Format : AC-3
Format/Info : Audio Coding 3
Mode extension : CM (complete main)
Format settings, Endianness : Big
Codec ID : A_AC3
Duration : 1h 32mn
Bit rate mode : Constant
Bit rate : 192 Kbps
Channel(s) : 2 channels
Channel positions : Front: L R
Sampling rate : 48.0 KHz
Frame rate : 31.250 fps (1536 spf)
Compression mode : Lossy
Stream size : 126 MiB (11%)
Title : Селена Интернешнл
Language : Russian
Default : Yes
Forced : No

Audio #2
ID : 3
Format : AAC
Format/Info : Advanced Audio Codec
Format profile : LC
Codec ID : A_AAC
Duration : 1h 32mn
Bit rate : 125 Kbps
Channel(s) : 2 channels
Channel positions : Front: L R
Sampling rate : 44.1 KHz
Frame rate : 43.066 fps (1024 spf)
Compression mode : Lossy
Stream size : 82.4 MiB (7%)
Language : English
Default : No
Forced : No
Скриншоты

  В закладки додало 0 людей.
0
Оцініть файл [ + або - ]
Торрент-файл / Оновити статистику трекера
Роздають Мульти-реліз
Завантажують Мульти-реліз
Розмір файлу 1.11 ГБ
Завантажили 0 р.
Потужність потоку
Перегляд: 3191
Якщо ви маєте права на цей матеріал, наступна інформація для вас.
↓ Поділіться роздачею з друзями у соціальних мережах.
↓ Пропозиції → Бойовик, Екшн, Кримінал, Пригоди.
Назва файлу Розмір
The Secret Life of Ian Fleming.mkv 1.11 ГБ
Ви не можете залишити коментар! Тільки користувачі мають цю можливість.
    Тут нiхто нiчого не написав... Поки що.
  Яндекс.Метрика
bigtorrent-ua.com
Згенеровано за 0.1474 сек