11,143

Швидкий навігатор

NLight DC++
↓ Пропавшее золото инков / Das verschollene Inka-Gold (Вольфганг Штаудте / Wolfgang Staudte) [1978, Франция, ФРГ, Румыния, приключения, DVB] [Советская прокатная копия] Dub
Доданий - 18 жов 2016р. о 21:36 |Категорія, Фільми → .
↓ Інформація про публікацію (Дивитись онлайн)
Пропавшее золото инков / Das verschollene Inka-Gold [Советская прокатная копия]


Страна: Франция, ФРГ, Румыния
Жанр: приключения
Год выпуска: 1978
Продолжительность: 01:09:09


Перевод: Профессиональный (дублированный) - Киностудия им А. Довженко
Cубтитры: нет


Режиссер: Вольфганг Штаудте / Wolfgang Staudte
В ролях: Вадим Гловна, Руби Манила, Амза Пелля, Мария Мерико, Александр Аллерсон, Корнел Коман, Корнелиу Гирбя, Штефан Михэйлеску-Брэила, Михай Пэлэдеску


Описание: По рассказу Джека Лондона.
Инженер Брайан приехал из Сан-Франциско в Южную Америку на заработки, влюбился в индейскую девушку Иму и узнал от нее о местонахождении Золотых Ворот, построенных древними инками. Но, раскрыв чужестранцу тайну, Има покончила жизнь самоубийством. Брайан бросает несметные сокровища и решает уехать.


Доп. информация: За любезно предоставленную запись с канала "Культура" большое спасибо ItarTass.


Семпл: http://sendfile.su/1275630


Тип релиза: DVB
Контейнер: MPG

Видео: 720x576 (4:3) @ 768x576, 25.000 fps, MPEG-2 Video, ~5326 Kbps, 0.514 bits/pixel
Аудио: Русский, 48.0 KHz, MPEG-1 Audio layer 2, 2 ch, 256 Kbps
MediaInfo
General
Complete name: Пропавшее золото инков 1978 Культура Dub Довженко.mpg
Format : MPEG-PS
File size: 2.75 GiB
Duration : 1 h 9 min
Overall bit rate mode: Variable
Overall bit rate : 5 695 kb/s

Video
ID : 224 (0xE0)
Format : MPEG Video
Format version : Version 2
Format profile : Main@Main
Format settings, BVOP: Yes
Format settings, Matrix: Custom
Format settings, GOP : M=3, N=15
Format settings, picture structure : Frame
Duration : 1 h 9 min
Bit rate mode: Variable
Bit rate : 5 326 kb/s
Maximum bit rate : 15.0 Mb/s
Width: 720 pixels
Height : 576 pixels
Display aspect ratio : 4:3
Frame rate : 25.000 FPS
Standard : PAL
Color space: YUV
Chroma subsampling : 4:2:0
Bit depth: 8 bits
Scan type: Interlaced
Scan order : Top Field First
Compression mode : Lossy
Bits/(Pixel*Frame) : 0.514
Time code of first frame : 00:00:00:00
Time code source : Group of pictures header
GOP, Open/Closed : Open
GOP, Open/Closed of first frame: Closed
Stream size: 2.57 GiB (94%)

Audio
ID : 192 (0xC0)
Format : MPEG Audio
Format version : Version 1
Format profile : Layer 2
Duration : 1 h 9 min
Bit rate mode: Constant
Bit rate : 256 kb/s
Channel(s) : 2 channels
Sampling rate: 48.0 kHz
Compression mode : Lossy
Stream size: 127 MiB (4%)
Скриншоты

  В закладки додало 0 людей.
0
Оцініть файл [ + або - ]
Торрент-файл / Оновити статистику трекера
Роздають Мульти-реліз
Завантажують Мульти-реліз
Розмір файлу 2.75 ГБ
Завантажили 0 р.
Потужність потоку
Перегляди: 3243
Якщо ви маєте права на цей матеріал, наступна інформація для вас.
↓ Пропозиції → Пригоди.
Назва файлу Розмір
Пропавшее золото инков 1978 Культура Dub Довженко.mpg 2.75 ГБ
bigtorrent-ua.com
Згенеровано за 0.0651 сек