11,144

Швидкий навігатор

Друзі сайту
NLight DC++
↓ Эверест / Everest (Бальтасар Кормакур / Baltasar Kormakur) [2015, США, Великобритания, Исландия, триллер, драма, приключения, биография, история, BDRip] Dub + Sub Rus, Eng, Ukr
↑ Реклама - двигун прогресу, переглянь оголошення і BT заробить 1 цент. Підтримай проект!
↓ Інформація про публікацію (Дивитись онлайн)






Эверест / Everest





«Самое опасное место на планете»
Страна: США, Великобритания, Исландия
Жанр: триллер, драма, приключения, биография, история
Год выпуска: 2015
Продолжительность: 02:01:10


Перевод: Профессиональный (дублированный) CEE
Cубтитры: русские (полные, форсированные), английские (обычные, SDH), украинские
Режиссер: Бальтасар Кормакур / Baltasar Kormákur



В ролях: Джейсон Кларк (Rob Hall), Джош Бролин (Beck Weathers), Джейк Джилленхол (Scott Fischer), Сэм Уортингтон (Guy Cotter), Джон Хоукс (Doug Hansen), Майкл Келли (Jon Krakauer), Ингвар Эггерт Сигюрдссон (Anatoli Boukreev), Кира Найтли (Jan Arnold), Эмили Уотсон (Helen Wilton), Робин Райт (Peach Weathers), Мартин Хендерсон (Andy «Harold» Harris), Элизабет Дебики (Caroline Mackenzie)

Описание: Эверест — великая неприступная гора, покорить вершину которой мечтают многие профессиональные альпинисты. Одна из экспедиций на ее вершину закончилась настоящей трагедией, однако этот факт не останавливает отважных альпинистов.

Опытный инструктор Роб Холл, собрав группу из лучших альпинистов, собирается совершить восхождение на самую высокую вершину планеты. Все эти люди полны мужества и отваги и они не остановятся ни перед чем, пока не поднимутся на вершину Эвереста. Но даже если эта гора покорится им, смогут ли они вернуться обратно живыми и невредимыми?..


| Посилання  Сэмпл |Посилання  IMDB | Посилання  КиноПоиск |


Автор рипа: yaroslaigor

Качество видео: BDRip
Формат видео: AVI

Видео: 720x304 (2.37:1), 23.976 fps, XviD build 65 ~2123 kbps avg, 0.40 bit/pixel
Аудио: 48 kHz, AC3 Dolby Digital, 3/2 (L,C,R,l,r) + LFE ch, ~448 kbps avg

MediaInfo
General
Полное имя : D:\MOVIES\Everest.2015.RUS.BDRip.XviD.AC3.-HQCLUB\Everest.2015.RUS.BDRip.XviD.AC3.-HQCLUB.avi
Формат : AVI
Формат/Информация : Audio Video Interleave
Профиль формата : OpenDML
Размер файла : 2.18 GiB
Продолжительность : 2h 1mn
Общий поток : 2 579 Kbps
Название фильма : Эверест / Everest (2015) BDRip
Жанр : драма, приключения
Программа кодирования : VirtualDubMod 1.5.10.2 (build 2542/release)
Примечание : 31.12.2015

Video
Идентификатор : 0
Формат : MPEG-4 Visual
Профиль формата : Advanced Simple@L5
Параметр BVOP формата : 1
Параметр QPel формата : No
Параметр GMC формата : No warppoints
Параметр матрицы формата : Custom
Идентификатор кодека : XVID
Идентификатор кодека/Подсказка : XviD
Продолжительность : 2h 1mn
Битрейт : 2 119 Kbps
Ширина : 720 pixels
Высота : 304 pixels
Соотношение сторон : 2.35:1
Частота кадров : 23.976 fps
Цветовое пространство : YUV
Субдискретизация насыщенности : 4:2:0
Битовая глубина : 8 bits
Тип развёртки : Progressive
Метод сжатия : Lossy
Бит/(Пиксели*Кадры) : 0.404
Размер потока : 1.79 GiB (82%)
Библиотека кодирования : XviD 65

Audio
Идентификатор : 1
Формат : AC-3
Формат/Информация : Audio Coding 3
Расширение режима : CM (complete main)
Параметр Endianness формата : Big
Идентификатор кодека : 2000
Продолжительность : 2h 1mn
Вид битрейта : Constant
Битрейт : 448 Kbps
Каналы : 6 channels
Расположение каналов : Front: L C R, Side: L R, LFE
Частота : 48.0 KHz
Метод сжатия : Lossy
Размер потока : 388 MiB (17%)
Выравнивание : Split accross interleaves
Продолжительность промежутка : 42 ms (1.00 video frame)
Время предзагрузки промежутка : 500 ms
Скриншот c названием фильма
Скриншоты

  В закладки додало 0 людей.
0
Оцініть файл [ + або - ]
Торрент-файл / Оновити статистику трекера
Роздають Мульти-реліз
Завантажують Мульти-реліз
Розмір файлу 2.18 ГБ
Завантажили 0 р.
Потужність потоку
Переглядів: 2659
Якщо ви маєте права на цей матеріал, наступна інформація для вас.
↓ Поділіться роздачею з друзями у соціальних мережах.
↓ Пропозиції → Драма, мелодрама, романтика, Трилери.
Назва файлу Розмір
Everest.2015.RUS.BDRip.XviD.AC3.-HQCLUB.avi 2.18 ГБ
Everest.2015.RUS.BDRip.XviD.AC3.-HQCLUB.ENG.SDH.srt 121.17 КБ
Everest.2015.RUS.BDRip.XviD.AC3.-HQCLUB.ENG.srt 109.72 КБ
Everest.2015.RUS.BDRip.XviD.AC3.-HQCLUB.RUS.FORCED.srt 3.56 КБ
Everest.2015.RUS.BDRip.XviD.AC3.-HQCLUB.RUS.srt 104.17 КБ
Everest.2015.RUS.BDRip.XviD.AC3.-HQCLUB.UKR.srt 102.94 КБ
Ви не можете залишити коментар! Тільки користувачі мають цю можливість.
    Тут нiхто нiчого не написав... Поки що.
  Яндекс.Метрика
bigtorrent-ua.com
Згенеровано за 0.2902 сек